Family 429 Canada De Nazare (2014) DVDRip - XviD - 1CD - [DDR-Exc...

  • Category Movies
  • Type h.264/x264
  • Language Hindi
  • Total size 697.0 MB
  • Uploaded By Cosmin27
  • Downloads 29
  • Last checked 9 months ago
  • Date uploaded 4 years ago
  • Seeders 0
  • Leechers 0

Infohash : 14FCD79C1AE4A389FC8B2E2DD7136A9E3CC15A5A

Family 429 Canada De Nazare (2014) DVDRip - XviD - 1CD - [DDR-Exclusive]



Movie Info

Movie Name : Family 429 Canada De Nazare
Starring : Gurchet Chittarkar, Gurdeep Kakrala, Prakash Gadhu, Daman Deep Sandhu, Satinder Kaur & More
Directed : Shiv Sidhu, Gurdeep Kakrala
Producer, Story & Dialogue : Gurchet Chittarkar
Music : Sukhwant Lovely
Movie Release Date : Aug 2014
Ripper : AnMoL
Source : DVD9 My Own Collection
Audio : Punjabi
Subtitle : N/A
Tech Info

Format : AVI
Format/Info : Audio Video Interleave
File size : 697 MiB
Duration : 1h 7mn
Overall bit rate : 1 444 Kbps

Video
Format : MPEG-4 Visual
Codec ID : XVID
Codec ID/Hint : XviD
Duration : 1h 7mn
Bit rate : 1 354 Kbps
Width : 656 pixels
Height : 304 pixels
Display aspect ratio : 2.2:1
Frame rate : 23.976 fps
Color space : YUV
Chroma subsampling : 4:2:0
Bit depth : 8 bits
Scan type : Progressive
Compression mode : Lossy
Bits/(Pixel*Frame) : 0.283
Stream size : 654 MiB (94%)

Audio
ID : 1
Format : MPEG Audio
Format version : Version 1
Format profile : Layer 3
Mode : Joint stereo
Mode extension : MS Stereo
Codec ID : 55
Codec ID/Hint : MP3
Duration : 1h 7mn
Bit rate mode : Constant
Bit rate : 80.0 Kbps
Channel(s) : 2 channels
Sampling rate : 32.0 KHz
Compression mode : Lossy
Stream size : 38.6 MiB (6%)
Screen Shot

Files:

  • Family 429 Canada De Nazare (2014) DVDRip - XviD - 1CD - [DDR-Exclusive].avi (697.0 MB)

There are currently no comments. Feel free to leave one :)

Code:

  • udp://tracker.openbittorrent.com:80/announce
  • udp://tracker.publicbt.com:80/announce
  • udp://tracker.ccc.de:80/announce
SitemapLâm Phi Truyện | Watch Episode | Antoine Fuqua