Edge of Darkness 2010 720p BRRip x264 MP4 Multisubs AAC-CC

  • Category Movies
  • Type Mp4
  • Language English
  • Total size 2.4 GB
  • Uploaded By CCaveman
  • Downloads 69
  • Last checked 1 day ago
  • Date uploaded 4 years ago
  • Seeders 1
  • Leechers 0

Edge of Darkness

CrimeDramaMysteryThriller

As a seasoned homicide detective, Thomas Craven has seen the bleakest side of humanity. But nothing prepares him for the toughest investigation of his life: the search for his only daughter Emma's killer. Now, he is on a personal mission to uncover the disturbing secrets surrounding her murder, including corporate corruption, government collusion and Emma's own mysterious life.

Infohash : C973FC096CD5C0C078E03A2C7941E26819B43747



http://www.imdb.com/title/tt1226273

Source: Edge of Darkness 2010 REPACK 720p Bluray x264-HUBRIS Thanks!

Subs: Arabic, Brazilian, Bulgarian, Croatian, Czech, Danish, Dutch, English, Farsi Persian, Finnish, French, Greek, Hebrew, Hungarian, Indonesian, Italian, Norwegian, Polish, Portuguese, Romanian, Serbian, Slovenian, Spanish, Swedish, Thai, Turkish, Vietnamese.

Sample and Screens included.

General
Complete name : Edge of Darkness 2010 720p BRRip x264 MP4 Multisubs AAC-CC.mp4
Format : MPEG-4
Format profile : Base Media
Codec ID : isom
File size : 2.40 GiB
Duration : 1h 56mn
Overall bit rate mode : Variable
Overall bit rate : 2 940 Kbps
Encoded date : UTC 2014-09-09 03:50:01
Tagged date : UTC 2014-09-09 03:50:01
Writing application : Yamb 2.1.0.0

Video
ID : 1
Format : AVC
Format/Info : Advanced Video Codec
Format profile : [email protected]
Format settings, CABAC : Yes
Format settings, ReFrames : 5 frames
Codec ID : avc1
Codec ID/Info : Advanced Video Coding
Duration : 1h 56mn
Bit rate : 2 614 Kbps
Maximum bit rate : 17.9 Mbps
Width : 1 280 pixels
Height : 536 pixels
Display aspect ratio : 2.40:1
Frame rate mode : Variable
Frame rate : 23.976 fps
Minimum frame rate : 19.048 fps
Maximum frame rate : 24.390 fps
Color space : YUV
Chroma subsampling : 4:2:0
Bit depth : 8 bits
Scan type : Progressive
Bits/(Pixel*Frame) : 0.159
Stream size : 2.08 GiB (87%)
Writing library : x264 core 112
Encoding settings : cabac=1 / ref=5 / deblock=1:0:0 / analyse=0x3:0x113 / me=hex / subme=7 / psy=1 / psy_rd=1.00:0.00 / mixed_ref=1 / me_range=16 / chroma_me=1 / trellis=1 / 8x8dct=1 / cqm=0 / deadzone=21,11 / fast_pskip=1 / chroma_qp_offset=-2 / threads=3 / sliced_threads=0 / nr=0 / decimate=1 / interlaced=0 / constrained_intra=0 / bframes=5 / b_pyramid=2 / b_adapt=2 / b_bias=0 / direct=1 / weightb=1 / open_gop=0 / weightp=2 / keyint=240 / keyint_min=23 / scenecut=40 / intra_refresh=0 / rc_lookahead=50 / rc=abr / mbtree=1 / bitrate=2614 / ratetol=1.0 / qcomp=0.60 / qpmin=3 / qpmax=51 / qpstep=4 / ip_ratio=1.40 / aq=1:1.00
Encoded date : UTC 2014-09-09 18:57:40
Tagged date : UTC 2014-09-09 03:53:38
Color primaries : BT.709
Transfer characteristics : BT.709
Matrix coefficients : BT.709

Audio
ID : 2
Format : AAC
Format/Info : Advanced Audio Codec
Format profile : LC
Codec ID : 40
Duration : 1h 56mn
Bit rate mode : Variable
Bit rate : 384 Kbps
Maximum bit rate : 556 Kbps
Channel(s) : 6 channels
Channel positions : Front: L C R, Side: L R, LFE
Sampling rate : 48.0 KHz
Compression mode : Lossy
Delay relative to video : 83ms
Stream size : 321 MiB (13%)
Language : English
Encoded date : UTC 2014-09-09 03:52:55
Tagged date : UTC 2014-09-09 03:53:38

Enjoy...

Requested by cmptrluvr's


Files:

Sample
  • Sample.mp4 (23.4 MB)
Screens Info
  • Edge of Darkness 2010 720p BRRip x264 MP4 Multisubs AAC-CC.mp4_snapshot_01.01.38.png (1.2 MB)
  • Edge of Darkness 2010 720p BRRip x264 MP4 Multisubs AAC-CC.mp4_snapshot_00.25.59.png (1.1 MB)
  • Edge of Darkness 2010 720p BRRip x264 MP4 Multisubs AAC-CC.mp4_snapshot_00.06.17.png (922.0 KB)
  • Edge of Darkness 2010 720p BRRip x264 MP4 Multisubs AAC-CC.mp4_snapshot_00.45.48.png (856.7 KB)
  • Edge of Darkness 2010 720p BRRip x264 MP4 Multisubs AAC-CC.mp4_snapshot_01.17.13.png (851.7 KB)
  • Edge of Darkness 2010 720p BRRip x264 MP4 Multisubs AAC-CC.mp4_snapshot_01.38.34.png (673.6 KB)
  • Edge of Darkness Bluray.jpg (522.3 KB)
  • Info.txt (4.6 KB)
Site Info
  • Torrent downloaded From ExtraTorrent.cc.txt (0.3 KB)
  • Torrent downloaded from TriCityTorrent.com.txt (0.2 KB)
  • Torrent downloaded from digtorrent.biz.txt (0.2 KB)
  • Torrent downloaded from AhaShare.com.txt (0.1 KB)
  • Torrent downloaded from torrentmoviemafia.com.txt (0.1 KB)
  • Torrent downloaded from daku-torrents.com.txt (0.0 KB)
  • Torrent downloaded from areafiles.org.txt (0.0 KB)
  • Torrent downloaded from btscene.eu .txt (0.0 KB)
  • Torrent downloaded from Flashtorrent.org.txt (0.0 KB)
  • Torrent downloaded from torrentgarden.com.txt (0.0 KB)
  • Torrent downloaded from publichash.com.txt (0.0 KB)
  • Torrent downloaded from demonoid.ph.txt (0.0 KB)
  • Torrent downloaded from pimp4003.net.txt (0.0 KB)
  • Torrent downloaded from divxhunt.me.txt (0.0 KB)
  • Torrent downloaded from glotorrents.com.txt (0.0 KB)
  • Torrent downloaded from h33t.com.txt (0.0 KB)
Subs
  • Vietnamese.srt (105.5 KB)
  • Italian.srt (90.2 KB)
  • Indonesian.srt (89.7 KB)
  • Danish.srt (88.5 KB)
  • Greek.srt (88.2 KB)
  • Brazilian.srt (87.3 KB)
  • Turkish.srt (87.3 KB)
  • Spanish.srt (87.2 KB)
  • Swedish.srt (86.8 KB)
  • Bulgarian.srt (86.6 KB)
  • French.srt (86.6 KB)
  • English.srt (85.7 KB)
  • Hungarian.srt (84.9 KB)
  • Croatian.srt (84.3 KB)
  • Polish.srt (83.5 KB)
  • Serbian.srt (82.4 KB)
  • Romanian.srt (82.0 KB)
  • Thai.srt (80.9 KB)
  • Portuguese.srt (79.4 KB)
  • Farsi Persian.srt (79.4 KB)
  • Arabic.srt (78.2 KB)
  • Hebrew.srt (76.1 KB)
  • Dutch.srt (74.6 KB)
  • Slovenian.srt (74.4 KB)
  • Finnish.srt (72.2 KB)
  • Norwegian.srt (68.6 KB)
  • Czech.srt (57.3 KB)
  • Edge of Darkness 2010 720p BRRip x264 MP4 Multisubs AAC-CC.mp4 (2.4 GB)

There are currently no comments. Feel free to leave one :)

Code:

  • udp://open.demonii.com:1337/announce
  • udp://tracker.token.ro:80/announce
  • udp://tracker.openbittorrent.com:80
  • udp://tracker.istole.it:80/announce
  • http://exodus.desync.com:6969/announce
  • udp://9.rarbg.com:2710/announce
  • udp://tracker.publicbt.com:80/announce
  • http://tracker.thepiratebay.org/announce
  • http://94.228.192.98/announce
  • udp://coppersurfer.tk:6969/announce
  • udp://11.rarbg.com/announce
  • http://tracker.flashtorrents.org:6969/announce
SitemapHugh Skinner | BBCAgent 4.0.00.6 | 4 more rapidgator, uploadgig, nitroflare links