Naked Lunch - Il Pasto Nudo (1991) [XviD - Italian English Ac3 5....

  • Category Movies
  • Type Divx/Xvid
  • Language English
  • Total size 1.7 GB
  • Uploaded By robbyrs
  • Downloads 106
  • Last checked 54 minutes ago
  • Date uploaded 4 years ago
  • Seeders 3
  • Leechers 0

Infohash : CFBC124683CF49E075C696CDAF4198C5735B6D6A

Naked Lunch - Il Pasto Nudo (1991) [XviD - Italian English Ac3 5.1 - Sub ita Eng] MIRCrew


Il Pasto Nudo - Naked Lunch (1991) [XviD - Italian English Ac3 5.1 - Sub ita Eng] MIRCrew




NO FOUND ONLY ORIGINAL RELEASE




Il Pasto Nudo - Naked Lunch (1991)









Premi

7 premi ai Genie Awards (fra cui miglior regia e fotografia) di Ontario nel (1992)
Miglior sceneggiatura ai Boston Society of Film Critics Awards nel 1992
Miglior attrice ai London Critics Circle Awards nel 1993
Miglior regia e sceneggiatura ai National Society of Film Critics Awards nel 1992
Miglior sceneggiatura e attrice ai New York Film Critics Circle Awards nel 1992


Titolo originale Naked Lunch
Paese di produzione Canada, Gran Bretagna, Giappone
Anno 1991
Durata 115 min

Genere drammatico, fantastico
Regia David Cronenberg
Soggetto William S. Burroughs
Sceneggiatura David Cronenberg
Produttore Jeremy Thomas
Casa di produzione Film Trustees Ltd.
Distribuzione (Italia) DARC - Erre Produzioni (1993)

Vivivideo, Panarecord (VHS) Eagle Pictures (DVD)
Fotografia Peter Suschitzky
Montaggio Ronald Sanders
Effetti speciali David Wiezer
Musiche Howard Shore, Ornette Coleman
Scenografia James McAteer, Elinor Rose Galbraith





Peter Weller: Bill Lee
Judy Davis: Joan Lee/Joan Frost
Ian Holm: Tom Frost
Julian Sands: Yves Cloquet
Roy Scheider: dottor Benway
Joseph Scoren: Kiki
Monique Mercure: Fadela
Nicholas Campbell: Hank
Michael Zelniker: Martin

Doppiatori italiani

Luigi La Monica: Bill Lee
Bruno Alessandro: Tom Frost
Fabrizio Pucci: Yves Cloquet
Michele Kalamera: dottor Benway
Edoardo Nordio: Kiki
Angelo Maggi: Hank
Roberto Del Giudice: Martin
Rodolfo Bianchi: voce delle creature





Lo sterminatore di scarafaggi William Lee scopre che sua moglie Joan si droga con la polvere gialla utilizzata per uccidere gli insetti. Quando Lee è arrestato per possesso di stupefacenti, viene portato in commissariato in stato di allucinazione: qui vede un agente segreto sotto forma di uno scarafaggio gigante. Quest'ultimo assegna a Lee la missione di uccidere Joan, la quale sarebbe una spia dell'organizzazione Interzone Incorporated. Lee uccide lo scarafaggio, ma quando torna a casa trova sua moglie a letto con l'amico scrittore Hank mentre un altro amico, Martin, recita poesie ad alta voce. William invita sua moglie a giocare al "Guglielmo Tell" con un bicchiere e una pistola, e le spara alla testa uccidendola: in questo modo porta a termine, inconsapevolmente, la missione assegnatagli........



Not an adaptation of beat writer William S. Burrough's novel but a mix of biography and an interpretation of his drug- induced writing processes combined with elements of his work in this paranoid fantasy about Bill Lee, a writer who accidentally shoots his wife, whose typewriter transforms into a cockroach and who becomes involved in a mysterious plot in North African port called Interzone. Wonderfully bizarre, not unlike Burrough's books.....














[spoiler]
General
Complete name : Il Pasto Nudo - Naked Lunch (1991).ita.eng.sub.ita.eng.MIRCrew\Il Pasto Nudo - Naked Lunch (1991).ita.eng.sub.ita.eng.MIRCrew.avi
Format : AVI
Format/Info : Audio Video Interleave
File size : 1.74 GiB
Duration : 1h 55mn
Overall bit rate : 2 167 Kbps

Video
ID : 0
Format : MPEG-4 Visual
Format profile : Advanced [email protected]
Format settings, BVOP : 2
Format settings, QPel : No
Format settings, GMC : No warppoints
Format settings, Matrix : Default (H.263)
Codec ID : DIVX
Codec ID/Info : Project Mayo
Codec ID/Hint : DivX 4
Duration : 1h 55mn
Bit rate : 1 254 Kbps
Width : 688 pixels
Height : 384 pixels
Display aspect ratio : 16:9
Frame rate : 24.000 fps
Color space : YUV
Chroma subsampling : 4:2:0
Bit depth : 8 bits
Scan type : Progressive
Compression mode : Lossy
Bits/(Pixel*Frame) : 0.198
Stream size : 1.01 GiB (58%)
Writing library : XviD 64

Audio #1
ID : 1
Format : AC-3
Format/Info : Audio Coding 3
Mode extension : CM (complete main)
Codec ID : 2000
Duration : 1h 55mn
Source duration : 1h 55mn
Bit rate mode : Constant
Bit rate : 448 Kbps
Channel(s) : 6 channels
Channel positions : Front: L C R, Side: L R, LFE
Sampling rate : 48.0 KHz
Bit depth : 16 bits
Compression mode : Lossy
Stream size : 369 MiB (21%)
Alignment : Aligned on interleaves
Interleave, duration : 32 ms (0.77 video frame)

Audio #2
ID : 2
Format : AC-3
Format/Info : Audio Coding 3
Mode extension : CM (complete main)
Codec ID : 2000
Duration : 1h 55mn
Source duration : 1h 55mn
Bit rate mode : Constant
Bit rate : 448 Kbps
Channel(s) : 6 channels
Channel positions : Front: L C R, Side: L R, LFE
Sampling rate : 48.0 KHz
Bit depth : 16 bits
Compression mode : Lossy
Stream size : 369 MiB (21%)
Alignment : Aligned on interleaves
Interleave, duration : 32 ms (0.77 video frame)





[/spoiler]

Files:

  • Il Pasto Nudo - Naked Lunch (1991).ita.eng.sub.ita.eng.MIRCrew.avi (1.7 GB)
  • Il Pasto Nudo - Naked Lunch (1991).ita.eng.sub.ita.eng.MIRCrew.eng.sub (84.5 KB)
  • Il Pasto Nudo - Naked Lunch (1991).ita.eng.sub.ita.eng.MIRCrew.ita.sub (92.3 KB)
  • Il Pasto Nudo - Naked Lunch (1991).ita.eng.sub.ita.eng.MIRCrew.sub (0.5 KB)

There are currently no comments. Feel free to leave one :)

Code:

  • udp://open.demonii.com:1337/announce
  • http://tracker.openbittorrent.com:80/announce
  • udp://tracker.openbittorrent.com:80/announce
  • udp://tracker.publicbt.com:80/announce
  • http://gameupdates.org/announce.php
  • http://www.todotorrents.com:2710/announce
  • http://tracker.podtropolis.com:2711/announce
  • http://tracker.torrentfrancais.com/announce
  • http://tracker.coppersurfer.tk:6969/announce
  • http://genesis.1337x.org:1337/announce
  • http://exodus.desync.com/announce
  • http://exodus.desync.com:6969/announce
  • udp://tracker.istole.it:80/announce
  • http://tracker.flashtorrents.org:6969/announce
  • udp://tracker.flashtorrents.org:6969/announce
SitemapLa Pat’ Patrouille En mission (SWITCH) | [SSNI-344] (English subbed) Ever Since That Day ... | Jumanji 3D BluRay 3D 1080p