BigTitsAtWork - Lela Star - Under The Desk (480p_1000) ***NEW SEP...

  • Category XXX
  • Type Video
  • Language English
  • Total size 304.0 MB
  • Uploaded By gemini527nj1
  • Downloads 303
  • Last checked 9 months ago
  • Date uploaded 4 years ago
  • Seeders 0
  • Leechers 0

Infohash : 51567DE06249E900E336574E202D6F1F216E2956







Screenshots


http://imgbanana.com/viewer.php?file=53045365169291842560.jpg

Description/Synopsis


Lela Star is a big booty slut who likes to make the workday go by a little quicker by rubbing one out during her lunch break. But when her computer won't work right as she's ready to get down to business, she's obviously pretty pissed! She calls up the IT guy Johnny Sins, and tells him to fix it before she gets back from lunch or there will be hell to pay. Trouble is, when she gets back from break and starts masturbating, Johnny's still under the desk! He tries to stay quiet as she fingers her wet pussy, but before long she discovers him and demands he strip down. She sucks and fucks his big dick, her monster booty bouncing as Johnny eats out her tight pussy. Lela cums all over his dick and then Johnny unleashes a fat cumshot all over her juicy pussy lips.

Starring: Lela Star, Johnny Sin
Released: September 10, 2014
Studio/Site: Brazzers/BigTitsAtWork
Genre/Tags: Big Ass, Big Tits, Big Tits Worship, Boss, Creampie, Business Women, Fantasies, Latina, Raven, Work

MediaInfo



General


Format : MPEG-4
Format profile : Base Media
Codec ID : isom
File size : 304 MiB
Duration : 36mn 2s
Overall bit rate : 1179 Kbps
Writing application : Lavf54.37.100

Video


ID : 1
Format : AVC
Format/Info : Advanced Video Codec
Format profile : [email protected]
Format settings, CABAC : Yes
Format settings, ReFrames : 5 frames
Codec ID : avc1
Codec ID/Info : Advanced Video Coding
Duration : 35mn 47s
Bit rate : 1000 Kbps
Width : 854 pixels
Height : 480 pixels
Display aspect ratio : 16:9
Frame rate mode : Constant
Frame rate : 29.970 fps
Color space : YUV
Chroma subsampling : 4:2:0
Bit depth : 8 bits
Scan type : Progressive
Bits/(Pixel*Frame) : 0.081
Stream size : 255 MiB (84%)
Writing library : x264 core 128 r2216 198a7ea
Tagged date : UTC 2014-07-16 09:25:57

Audio


ID : 2
Format : AAC
Format/Info : Advanced Audio Codec
Format profile : LC
Codec ID : 40
Duration : 36mn 2s
Duration_LastFrame : 15s 564ms
Bit rate mode : Constant
Bit rate : 127 Kbps
Channel(s) : 2 channels
Channel positions : Front: L R
Sampling rate : 48.0 KHz
Compression mode : Lossy
Stream size : 32.8 MiB (11%)
Tagged date : UTC 2014-07-16 09:25:57

Files:

  • BigTitsAtWork - Lela Star - Under The Desk (480p_1000).mp4 (304.0 MB)

There are currently no comments. Feel free to leave one :)

Code:

  • udp://tracker.openbittorrent.com:80/announce
  • udp://tracker.publicbt.com:80/announce
  • udp://tracker.istole.it:80/announce
  • udp://pornleech.com:2710/announce
  • udp://pornleech.me:2710/announce
  • udp://pornleech.ru:2710/announce
  • udp://9.rarbg.com:2710/announce
  • udp://9.rarbg.me:2710/announce
  • udp://open.demonii.com:1337/announce
  • udp://pow7.com:80/announce
  • udp://tracker.prq.to/announce
  • udp://tracker.token.ro:80/announce
  • udp://ipv4.tracker.harry.lu:80/announce
  • udp://anisaishuu.de:2710/announce
  • udp://tracker.zond.org:80/announce
SitemapQuickborner Tageblatt - 05. Juli 2018 | Watch movie | [18+] 3D Sex and Zen: Extreme Ecstasy